Bhoomi Movie Download

14.2 K
80.1 K
4.8 K
bhoomi movie download hd
Bhoomi
Theatrical release poster
Directed byOmung Kumar
Produced byBhushan Kumar
Sandeep Singh
Omung Kumar
Screenplay byRaaj Shaandilyaa
Story bySandeep Singh
StarringSanjay Dutt
Aditi Rao Hydari
Shekhar Suman
Sidhant Gupta
Sharad Kelkar
Music bySongs:
Sachin-Jigar
Background Score:
Ismail Darbar
CinematographyArtur Zurawski
Edited byJayesh Shikarkhane
Production
company
T-Series,
Legend Studios
Release date
  • 22 September 2017 (2017-09-22)
[1]
Running time
136 minutes
CountryIndia
LanguageHindi
Box office14.76 crores[2]

===================================================================
General
Complete name               : Bhoomi 2017 Hindi 720p HDRip x264 AAC { TaRa }.mkv
Format                      : Matroska
Format version              : Version 4 / Version 2
File size                   : 1 003 MiB
Duration                    : 2 h 10 min
Overall bit rate            : 1 071 kb/s
===================================================================
Video
ID                          : 1
Format                      : AVC
Format/Info                 : Advanced Video Codec
Format profile              : High@L4.1
Format settings             : CABAC / 4 Ref Frames
Format settings, CABAC      : Yes
Format settings, RefFrames  : 4 frames
Codec ID                    : V_MPEG4/ISO/AVC
Duration                    : 2 h 10 min
Bit rate                    : 1 005 kb/s
Width                       : 1 280 pixels
Height                      : 542 pixels
Display aspect ratio        : 2.40:1
Original display aspect rat : 2.35:1
Frame rate mode             : Constant
Frame rate                  : 23.976 (24000/1001) FPS
Color space                 : YUV
Chroma subsampling          : 4:2:0
Bit depth                   : 8 bits
Scan type                   : Progressive
Bits/(Pixel*Frame)          : 0.060
Stream size                 : 941 MiB (94%)
Title                       : …..::::: TaRa :::::…..
Language                    : Hindi
Default                     : Yes
Forced                      : No
===================================================================
Audio
ID                          : 2
Format                      : AAC
Format/Info                 : Advanced Audio Codec
Format profile              : LC
Codec ID                    : A_AAC-2
Duration                    : 2 h 10 min
Bit rate                    : 64.3 kb/s
Channel(s)                  : 2 channels
Channel positions           : Front: L R
Sampling rate               : 48.0 kHz
Frame rate                  : 46.875 FPS (1024 SPF)
Compression mode            : Lossy
Stream size                 : 60.2 MiB (6%)
Title                       : …..::::: TaRa :::::…..
Language                    : Hindi
Default                     : Yes
Forced                      : No
===================================================================

Cast (Role)

File Extension - .torrent

File Size - 16.37 KB

Leave a Reply

Your email address will not be published. Required fields are marked *