Hum Chaar Movie Download HD

14.2 K
80.1 K
4.8 K
Hum Chaar Movie Download HD
MDb Rating: 7.3/10
Director: Abhishek Dixit
Producer: Sooraj Barjatya
Music director: Vipin Patwa, Raaj Aashoo, George Joseph

==================================================================
General
Complete name               : Hum chaar 2019 Hindi PRE-DVDRip x264 AAC { TaRa }.mkv
Format                      : Matroska
Format version              : Version 4 / Version 2
File size                   : 749 MiB
Duration                    : 2 h 19 min
Overall bit rate            : 748 kb/s
===================================================================
Video
ID                          : 1
Format                      : AVC
Format/Info                 : Advanced Video Codec
Format profile              : High@L3.1
Format settings, CABAC      : Yes
Format settings, ReFrames   : 4 frames
Codec ID                    : V_MPEG4/ISO/AVC
Duration                    : 2 h 19 min
Bit rate                    : 622 kb/s
Width                       : 720 pixels
Height                      : 304 pixels
Display aspect ratio        : 2.35:1
Frame rate mode             : Constant
Frame rate                  : 25.000 FPS
Color space                 : YUV
Chroma subsampling          : 4:2:0
Bit depth                   : 8 bits
Scan type                   : Progressive
Bits/(Pixel*Frame)          : 0.114
Stream size                 : 621 MiB (83%)
Title                       : …..::::: TaRa :::::…..
Language                    : Hindi
Default                     : Yes
Forced                      : No
===================================================================
Audio
ID                          : 2
Format                      : AAC
Format/Info                 : Advanced Audio Codec
Format profile              : LC
Codec ID                    : A_AAC
Duration                    : 2 h 19 min
Bit rate                    : 126 kb/s
Channel(s)                  : 2 channels
Channel positions           : Front: L R
Sampling rate               : 44.1 kHz
Frame rate                  : 43.066 FPS (1024 spf)
Compression mode            : Lossy
Delay relative to video     : -23 ms
Stream size                 : 126 MiB (17%)
Title                       : …..::::: TaRa :::::…..
Language                    : Hindi
Default                     : Yes
Forced                      : No

DOWNLOAD FILE

File Hash - 617442776073BBE3BAA6D76E2783C88F504B3C9F

File Extension - .torrent

File Size - 16.37 KB

Leave a Reply

Your email address will not be published. Required fields are marked *